#TITLE:Insomnia;
#SUBTITLE:(Club Mix);
#ARTIST:DJ Caffiene;
#TITLETRANSLIT:;
#SUBTITLETRANSLIT:;
#ARTISTTRANSLIT:;
#CREDIT:;
#BANNER:;
#BACKGROUND:insomnia-bg.png;
#LYRICSPATH:;
#CDTITLE:;
#MUSIC:Insomnia.mp3;
#MUSICLENGTH:84.767;
#OFFSET:-0.100;
#SAMPLESTART:42.383;
#SAMPLELENGTH:12.000;
#SELECTABLE:YES;
#BPMS:0.000=141.900;
#STOPS:;
#BGCHANGES:;
#FIRSTBEAT:16.000;

#LASTBEAT:199.500;

#SONGFILENAME:Songs/EXTRA/Insomnia/insomnia.sm;

#HASMUSIC:1;

#HASBANNER:0;


//---------------dance-single - MANIAC----------------
#NOTES:
     dance-single:
     MANIAC:
     hard:
     10:
     0.642,0.735,0.224,0.024,0.525,360.000,19.000,2.000,0.000,0.000:  // measure 1
0000
0000
0000
0000
,  // measure 2
0000
0000
0000
0000
,  // measure 3
0000
0000
0000
0000
,  // measure 4
0000
0000
0000
0000
,  // measure 5
1000
1000
1000
1000
,  // measure 6
1000
1000
1000
1000
,  // measure 7
0010
0010
0010
0010
,  // measure 8
0010
0010
0010
0010
,  // measure 9
1000
0000
0000
0010
0000
0010
1000
0000
1000
0000
0000
0010
0000
0010
1000
0000
,  // measure 10
0100
0000
0000
0001
0000
0001
0100
0000
0100
0000
0000
0001
0000
0001
0100
0000
,  // measure 11
1000
0000
0000
0100
0000
0100
1000
0000
1000
0000
0000
0100
0000
0100
1000
0000
,  // measure 12
0010
0000
0000
0001
0000
0001
0010
0000
0010
0000
0000
0001
0000
0001
0010
0000
,  // measure 13
1000
0000
0000
0010
0000
0010
1000
0000
1000
0000
0000
0010
0000
0010
1000
0000
,  // measure 14
0100
0000
0000
0001
0000
0001
0100
0000
0100
0000
0000
0001
0000
0001
0100
0000
,  // measure 15
1000
0000
0000
0100
0000
0100
1000
0000
1000
0000
0000
0100
0000
0100
1000
0000
,  // measure 16
1000
0001
1000
0001
1000
0001
1000
0001
,  // measure 17
1000
0000
0000
1000
0001
0000
0000
0001
0100
0000
0000
0100
0010
0000
0000
0010
,  // measure 18
1000
0000
0000
1000
0010
0000
0000
0010
1000
0000
0000
1000
0100
0000
0000
0100
,  // measure 19
0010
0000
0000
0010
0001
0000
0000
0001
1000
0000
0000
1000
0010
0000
0000
0010
,  // measure 20
0100
0000
0000
0100
0001
0000
0010
0000
0100
0000
1000
0000
0001
0000
0010
0000
,  // measure 21
1000
0001
1000
0001
1000
0001
1000
0001
,  // measure 22
0100
0010
0100
0010
0100
0010
0100
0010
,  // measure 23
1000
0001
1000
0001
0100
0010
0100
0010
,  // measure 24
1000
0001
1000
0001
1000
0001
1000
0001
1000
0001
1000
0001
1000
0001
1000
0001
,  // measure 25
2000
0000
0000
3000
,  // measure 26
1001
0100
0010
0100
1001
0010
0100
0010
,  // measure 27
1001
0100
0010
0100
1001
1000
1001
0001
,  // measure 28
0110
1000
0001
1000
0110
0001
1000
0001
,  // measure 29
0110
1000
0001
1000
0110
0100
0110
0010
,  // measure 30
1010
0100
0001
0100
1010
0001
0100
0001
,  // measure 31
1010
0100
0001
0100
1010
1000
1010
0010
,  // measure 32
0101
1000
0010
1000
0101
0010
1000
0010
,  // measure 33
0101
1000
0010
1000
0101
0000
0000
0000
,  // measure 34
1000
0000
0000
0010
0000
0010
1000
0000
0001
1000
0001
0000
0010
0000
0000
0000
,  // measure 35
0100
0000
0000
0001
0000
0001
0100
0000
1000
0010
1000
0000
0010
0000
0000
0000
,  // measure 36
0010
0000
0000
0001
0000
0001
0100
0000
1000
0100
1000
0000
0010
0000
0000
0000
,  // measure 37
1000
0000
0000
0001
0000
0001
0010
0000
0010
0100
0010
0000
0010
0000
0000
0000
,  // measure 38
1000
0000
0000
0010
0000
0010
1000
0000
0001
1000
0001
0000
0010
0000
0000
0000
,  // measure 39
0100
0000
0000
0001
0000
0001
0100
0000
1000
0010
1000
0000
0010
0000
0000
0000
,  // measure 40
0010
0000
0000
0001
0000
0001
0100
0000
1000
0100
1000
0000
0010
0000
0000
0000
,  // measure 41
1000
0000
0000
0001
0000
0001
0010
0000
0010
0100
0010
0000
0010
0000
0000
0000
,  // measure 42
0100
0000
0010
0000
0100
0000
0001
0000
1000
0000
0100
0000
1000
0001
1000
0001
,  // measure 43
0010
0000
0100
0000
0010
0000
0001
0000
0100
0000
0010
0000
0100
0010
0100
0010
,  // measure 44
1000
0000
0100
0000
0010
0000
0001
0000
1000
0000
0001
0000
1000
0010
1000
0010
,  // measure 45
0100
0000
0001
0000
1000
0000
0010
0000
0100
0000
0100
0000
1000
0100
0001
0100
,  // measure 46
0010
0000
1000
0000
0100
0000
0001
0000
0100
0000
1000
0000
0010
1000
0010
1000
,  // measure 47
0010
0000
1000
0000
0001
0000
0010
0000
0100
0000
0010
0000
0001
1000
0001
1000
,  // measure 48
0100
0000
0010
0000
0001
0000
0001
0000
0100
0000
0010
0000
0100
0010
0100
0010
,  // measure 49
0100
0000
0001
0000
1000
0000
0010
0000
0100
0000
0100
0000
1000
0100
0001
0100
,  // measure 50
2000
0000
0000
0000
0000
0000
0000
3001
;
